Download Empire State 2013 720p Blu-Ray x264 [Dual-Audio] [English DD 5.1 + Hindi]

Download Empire State 2013 720p Blu-Ray x264 [Dual-Audio] [English DD 5.1 + Hindi]

image

1

CLICK LOGO FOR

[url=http://www.imdb.com/title/tt2171867/]
image

IMDB Rating: 5.1/10.0

GENRE: Crime | Drama | Thriller

General
Unique ID : 237063703613493592269024919362171233921 (0xB258CEFD3DCB07A8A30F13632D52E681)
Complete name : Empire State (2013) 720p Blu-Ray x264 [Dual-Audio] [English DD 5.1 + Hindi] – Mafiaking.mkv
Format : Matroska
Format version : Version 4 / Version 2
File size : 890 MiB
Duration : 1h 34mn
Overall bit rate : 1 320 Kbps
Movie name : Empire State (2013) 720p Blu-Ray x264 [Dual-Audio] [English DD 5.1 + Hindi] – Mafiaking
Encoded date : UTC 2013-12-29 12:41:11
Writing application : mkvmerge v6.2.0 (‘Promised Land’) built on Apr 28 2013 12:22:01
Writing library : libebml v1.3.0 + libmatroska v1.4.0

Video
ID : 1
Format : AVC
Format/Info : Advanced Video Codec
Format profile : High@L3.1
Format settings, CABAC : Yes
Format settings, ReFrames : 5 frames
Codec ID : V_MPEG4/ISO/AVC
Duration : 1h 34mn
Bit rate : 1 000 Kbps
Width : 1 280 pixels
Height : 528 pixels
Display aspect ratio : 2.40:1
Frame rate mode : Constant
Frame rate : 23.976 fps
Color space : YUV
Chroma subsampling : 4:2:0
Bit depth : 8 bits
Scan type : Progressive
Bits/(Pixel*Frame) : 0.062
Stream size : 657 MiB (74%)
Title : Mafiaking

Language : English
Default : Yes
Forced : No

Audio #1
ID : 2
Format : AC-3
Format/Info : Audio Coding 3
Mode extension : CM (complete main)
Format settings, Endianness : Big
Codec ID : A_AC3
Duration : 1h 34mn
Bit rate mode : Constant
Bit rate : 128 Kbps
Channel(s) : 2 channels
Channel positions : Front: L R
Sampling rate : 48.0 KHz
Bit depth : 16 bits
Compression mode : Lossy
Stream size : 86.4 MiB (10%)
Title : Mafiaking
Language : Hindi
Default : Yes
Forced : No

Audio #2
ID : 3
Format : AC-3
Format/Info : Audio Coding 3
Mode extension : CM (complete main)
Format settings, Endianness : Big
Codec ID : A_AC3
Duration : 1h 34mn
Bit rate mode : Constant
Bit rate : 192 Kbps
Channel(s) : 6 channels
Channel positions : Front: L C R, Side: L R, LFE
Sampling rate : 48.0 KHz
Bit depth : 16 bits
Compression mode : Lossy
Stream size : 130 MiB (15%)
Title : Mafiaking
Language : English
Default : No
Forced : No

21

image

image

image

image

image

 

DOWNLOAD LINK 1

Download button 2

DOWNLOAD LINK 2

Download button 2

DOWNLOAD LINK 3

Download button 2

DOWNLOAD LINK 4

Download button 2

DOWNLOAD LINK 5

Download button 2

DOWNLOAD LINK 6

Download button 2

DOWNLOAD LINK 7

Download button 2

DOWNLOAD LINK 8

Download button 2

Download R…Rajkumar 20131 CD x264 DvDSCR [DDR]

Download R…Rajkumar 20131 CD x264 DvDSCR [DDR]

 

UEJJ0yC.jpg

1

Source : DVDSCR @ DDR
Note: Variable cropping taken care of :)

Format : Matroska
File size : 700 MiB
Duration : 2h 25mn
Overall bit rate : 671 Kbps

Video
Format : AVC
Nominal bit rate : 605 Kbps
Width : 640 pixels
Height : 272 pixels
Display aspect ratio : 2.35:1
Frame rate : 23.976 fps
Bit depth : 8 bits
Scan type : Progressive

Audio
Codec ID/Hint : AAC
Bit rate mode : Variable
Bit rate : LC @ 64 Kbps
Channel(s) : 2 channels
Language : Hindi
Chapters = NA

Subtitle(s) : None On source

21

oJTDFFL.png

unnJXDs.png

gyyigim.png

fzSxhit.png

nSadk9n.png

i3nqbXW.png

fYZ1Qek.png

JN8CQkK.png

3PsDqpW.png

nFZgNc5.png

L3Ykwat.png

DOWNLOAD LINK 1

Download button 2

DOWNLOAD LINK 2

Download button 2

DOWNLOAD LINK 3

Download button 2

DOWNLOAD LINK 4

Download button 2

DOWNLOAD LINK 5

Download button 2

DOWNLOAD LINK 6

Download button 2

DOWNLOAD LINK 7

Download button 2

DOWNLOAD LINK 8

Download button 2

Download Dhoom 3 2013 Hindi DvDScr [Ver 1] (1CD) x264 AAC

Download Dhoom 3 2013 Hindi DvDScr [Ver 1] (1CD) x264 AAC

image

1

http://www.imdb.com/title/tt1833673/

Source : Team Telly
Format : Matroska
Format version : Version 4 / Version 2
File size : 696 MiB
Duration : 2h 42mn

Video
ID : 1
Format : AVC
Format/Info : Advanced Video Codec
Format profile : High@L3.1
Format settings, CABAC : Yes
Format settings, ReFrames : 8 frames
Codec ID : V_MPEG4/ISO/AVC
Duration : 2h 42mn
Nominal bit rate : 533 Kbps
Width : 640 pixels
Height : 272 pixels
Display aspect ratio : 2.35:1
Frame rate mode : Constant
Frame rate : 23.976 fps

Audio
ID : 2
Format : AAC
Format/Info : Advanced Audio Codec
Format profile : LC
Codec ID : A_AAC 64Kbps
Duration : 2h 42mn
Channel(s) : 2 channels
Channel positions : Front: L R
Sampling rate : 44.1 KHz

21

 

image

image

image

image

image

image

image

image

image

image

image

DOWNLOAD LINK 1

Download button 2

DOWNLOAD LINK 2

Download button 2

DOWNLOAD LINK 3

Download button 2

DOWNLOAD LINK 4

Download button 2

DOWNLOAD LINK 5

Download button 2

DOWNLOAD LINK 6

Download button 2

DOWNLOAD LINK 7

Download button 2

DOWNLOAD LINK 8

Download button 2

Download 47 Ronin (2013) 300MB ScamRip Dual Audio [Hindi+English] x264

Download 47 Ronin (2013) 300MB ScamRip Dual Audio [Hindi+English] x264

image

1

 

Format : Matroska
Format version : Version 2
File size : 310 MiB
Duration : 1h 48mn
Overall bit rate : 399 Kbps
Movie name : 47 Ronin (2013) – 300 mb rip by one and only [dEsI InDiAn]

Video
ID : 1
Format : AVC
Format/Info : Advanced Video Codec
Format profile : High@L5.1
Format settings, CABAC : Yes
Format settings, ReFrames : 16 frames
Muxing mode : Header stripping
Codec ID : V_MPEG4/ISO/AVC
Duration : 1h 48mn
Nominal bit rate : 335 Kbps
Width : 720 pixels
Height : 304 pixels
Display aspect ratio : 2.35:1
Frame rate mode : Constant
Frame rate : 25.000 fps
Color space : YUV
Chroma subsampling : 4:2:0
Bit depth : 8 bits
Scan type : Progressive
Bits/(Pixel*Frame) : 0.061
Default : Yes
Forced : No

Audio #1
ID : 2
Format : AAC
Format/Info : Advanced Audio Codec
Format profile : HE-AACv2 / HE-AAC / LC
Codec ID : A_AAC
Duration : 1h 48mn
Channel(s) : 2 channels / 1 channel / 1 channel
Channel positions : Front: L R / Front: C / Front: C
Sampling rate : 22.05 KHz / 22.05 KHz / 11.025 KHz
Compression mode : Lossy
Delay relative to video : 16s 24ms
Title : 300 mb rip by one and only [dEsI InDiAn]
Language : Hindi
Default : Yes
Forced : No

Audio #2
ID : 3
Format : AAC
Format/Info : Advanced Audio Codec
Format profile : HE-AACv2 / HE-AAC / LC
Codec ID : A_AAC
Duration : 1h 48mn
Channel(s) : 2 channels / 1 channel / 1 channel
Channel positions : Front: L R / Front: C / Front: C
Sampling rate : 22.05 KHz / 22.05 KHz / 11.025 KHz
Compression mode : Lossy
Delay relative to video : 24ms
Title : 300 mb rip by one and only [dEsI InDiAn]
Language : English
Default : No
Forced : No

21

image

image

image

DOWNLOAD LINK 1

Download button 2

DOWNLOAD LINK 2

Download button 2

DOWNLOAD LINK 3

Download button 2

DOWNLOAD LINK 4

Download button 2

DOWNLOAD LINK 5

Download button 2

DOWNLOAD LINK 6

Download button 2

DOWNLOAD LINK 7

Download button 2

DOWNLOAD LINK 8

Download button 2

Download Jai Ho (2014) Hindi HD DVDScr NEW SOURCE XviD

Download Jai Ho (2014) Hindi HD DVDScr NEW SOURCE XviD

image

1

Info: Banner: Eros International, Sohail Khan Productions Cast: Salman Khan, Tabu, Suniel Shetty, Danny Denzongpa, Sana Khan, Daisy Shah, Nadira Babbar, Genelia D’Souza, Mahesh Thakur, Resham Tipnis, Ashmit Patel, Yash Tonk Direction: Sohail Khan Production: Sunil A Lulla, Sohail Khan Music: Sajid-Wajid, Devi Sri Prasad, Amal Malik

Format : Matroska
Format version : Version 4 / Version 2
File size : 696 MiB
Duration : 2h 17mn
Overall bit rate : 709 Kbps
Movie name : Jai Ho 2014 Hindi Movies DVDRip XViD ~ rDX ~

Video
ID : 1
Format : AVC
Format/Info : Advanced Video Codec
Format profile : High@L2.1
Format settings, CABAC : Yes
Format settings, ReFrames : 5 frames
Codec ID : V_MPEG4/ISO/AVC
Duration : 2h 17mn
Bit rate : 643 Kbps
Width : 608 pixels
Height : 256 pixels
Display aspect ratio : 2.40:1
Frame rate mode : Constant
Frame rate : 23.976 fps
Color space : YUV
Chroma subsampling : 4:2:0
Bit depth : 8 bits
Scan type : Progressive
Bits/(Pixel*Frame) : 0.172
Stream size : 620 MiB (89%)
Writing library : x264
Language : English
Default : Yes
Forced : No

Audio
ID : 2
Format : MPEG Audio
Format version : Version 2
Format profile : Layer 3
Mode : Joint stereo
Mode extension : MS Stereo
Codec ID : A_MPEG/L3
Codec ID/Hint : MP3
Duration : 2h 17mn
Bit rate mode : Constant
Bit rate : 64.0 Kbps
Channel(s) : 2 channels
Sampling rate : 24.0 KHz
Compression mode : Lossy
Stream size : 63.0 MiB (9%)
Writing library : LAME3.99r
Encoding settings : -m j -V 4 -q 2 -lowpass 11 -b 64
Default : Yes
Forced : No

21

image

image

image

image

image

image

image

image

image

DOWNLOAD LINK 1

Download button 2

DOWNLOAD LINK 2

Download button 2

DOWNLOAD LINK 3

Download button 2

DOWNLOAD LINK 4

Download button 2

DOWNLOAD LINK 5

Download button 2

DOWNLOAD LINK 6

Download button 2

DOWNLOAD LINK 7

Download button 2

DOWNLOAD LINK 8

Download button 2

Download Windows 8.1 Enterprise Evaluation Resources ISO

Download Windows 8.1 Enterprise Evaluation Resources ISO

Windows 8.1 Update 1 reportedly arriving via Windows Update, not via the Windows Store

1

Windows 8.1 Enterprise Direct Download Single Links

FOR INSTALLATION USE THESE KEYS 

Enterprise-x64: MNDGV-M6PKV-DV4DR-CYY8X-2YRXH

 

Enterprise-x86=FHQNR-XYXYC-8PMHT-TV4PH-DRQ3H

These ISO images are Final Build (October 17 Release)
These are Untouched giving you a clean installation.

As these are original images, the activator is not inside them but you can get it by rajbain.com

Comment if link is broken…

21

DOWNLOAD LINK 1

Download button 2

DOWNLOAD LINK 2

Download button 2

DOWNLOAD LINK 3

Download button 2

DOWNLOAD LINK 4

Download button 2

DOWNLOAD LINK 5

Download button 2

Windows 8.1 PRO x86/x64 Official Untouched ISO Direct Download Links

Windows 8.1 PRO x86/x64 Official Untouched ISO Direct Download Links

Windows 8.1 Update 1 reportedly arriving via Windows Update, not via the Windows Store

1

Windows 8.1
Here are the download links you need

Mirror Link Windows 8.1 PRO VL 32 bit (Mega) 

FOR INSTALLATION USE THESE KEYS

Professional-x64: MHF9N-XY6XB-WVXMC-BTDCT-MKKG7

Professional-x86: XHQ8N-C3MCJ-RQXB6-WCHYG-C9WKB

 
These ISO images are Final Build (October 17 Release)These are Untouched giving you a clean installation.
As these are original images, the activator is not inside them but you can get it by  rajbain.com
Comment if link is broken…
Anonymous user mention Email so that we can get back to you.

 

Download button 2

Download Windows 8.1 Enterprise Evaluation Resources ISO

Download Windows 8.1 Enterprise Evaluation Resources ISO

Windows 8.1 Update 1 reportedly arriving via Windows Update, not via the Windows Store

1

Windows 8.1 Enterprise Direct Download Single Links

FOR INSTALLATION USE THESE KEYS 

Enterprise-x64: MNDGV-M6PKV-DV4DR-CYY8X-2YRXH

 

Enterprise-x86=FHQNR-XYXYC-8PMHT-TV4PH-DRQ3H

These ISO images are Final Build (October 17 Release)
These are Untouched giving you a clean installation.

As these are original images, the activator is not inside them but you can get it by rajbain.com

Comment if link is broken…

DOWNLOAD LINK 1

Download button 2

DOWNLOAD LINK 2

Download button 2

DOWNLOAD LINK 3

Download button 2

DOWNLOAD LINK 4

Download button 2

DOWNLOAD LINK 5

Download button 2

Evolva Free Download PC Game

Evolva Free Download PC Game

Evolva Pc Game

1

Evolva is a third person action game, released in 2000. The player leads a team of 4 GenoHunters exploring a planet, each of the GenoHunters can develop new abilities by incorporating and altering the DNA they’ve absorbed from the creatures they have killed. The GenoHunters will change their physical appearance (change colors, develop spikes or horns) based on the DNA they’ve used to mutate themselves. Your Genohunters can punch, jump, super jump, breathe fire, vomit flammable liquids, shoot explosives, scramble enemies brains and spawn small alien offspring that injure enemies.

The game has 12 large, linear levels populated with alien insect-like creatures known as the “parasite guardians”. There are different types of these alien creatures. In some of the levels there are “Bosses” at the end which your team of genohunters must defeat. 

The overall premise of Evolva is as if Raziel had joined Greenpeace; you must save a planet from a humongous parasite that attaches itself to the surface and proceeds to suck the life out of it. The parasite has a nasty habit of spawning guardians, hostile creatures with more bite than bark.

The game was praised by critics as very innovative, without any major criticisms, other than the high hardware requirements (for the time) and weak multiplayer support. 
Evolva Free Download Pc Game Full Version
System Requirements!
Cpu: 1.4 Ghz
Ram: 256 Mb
Video Memory: 32 Mb
Windows Xp,7,Vista

21

DOWNLOAD LINK 1

Download button 2

DOWNLOAD LINK 2

Download button 2

Download I Frankenstein 2014 CAM READNFO x264 AAC

Download I Frankenstein 2014 CAM READNFO x264 AAC

zJnpnZV.jpg

1

http://www.imdb.com/title/tt1418377/

Frankenstein’s creature finds himself caught in an all-out, centuries old war between two immortal clans.

Director: Stuart Beattie
Writers: Stuart Beattie (screenplay), Kevin Grevioux (screen story)
Stars: Aaron Eckhart, Bill Nighy, Miranda Otto
Genres: Action | Fantasy | Sci-Fi
Country: USA | Australia
Language: English

SoURCE: VOSE :) Thnx

General
Complete name : I Frankenstein 2014 CAM READNFO x264 AAC-AVeNGeRZ.mp4
Format : MPEG-4
Format profile : Base Media
Codec ID : isom
File size : 621 MiB
Duration : 1h 24mn
Overall bit rate mode : Variable
Overall bit rate : 1 034 Kbps
Encoded date : UTC 2014-01-27 17:37:54
Tagged date : UTC 2014-01-27 17:37:54

Video
ID : 1
Format : AVC
Format/Info : Advanced Video Codec
Format profile : High@L4.1
Format settings, CABAC : Yes
Format settings, ReFrames : 3 frames
Codec ID : avc1
Codec ID/Info : Advanced Video Coding
Duration : 1h 24mn
Bit rate mode : Variable
Bit rate : 902 Kbps
Maximum bit rate : 40.0 Mbps
Width : 704 pixels
Height : 292 pixels
Display aspect ratio : 2.40:1
Frame rate mode : Constant
Frame rate : 29.970 fps
Color space : YUV
Chroma subsampling : 4:2:0
Bit depth : 8 bits
Scan type : Progressive
Bits/(Pixel*Frame) : 0.146
Stream size : 542 MiB (87%)
Writing library : x264 core 140 r2377 1ca7bb9

Audio
ID : 2
Format : AAC
Format/Info : Advanced Audio Codec
Format profile : LC
Codec ID : 40
Duration : 1h 24mn
Bit rate mode : Variable
Bit rate : 128 Kbps
Maximum bit rate : 142 Kbps
Channel(s) : 2 channels
Channel positions : Front: L R
Sampling rate : 44.1 KHz
Compression mode : Lossy
Stream size : 76.6 MiB (12%)
Language : English
Encoded date : UTC 2014-01-27 16:06:01
Tagged date : UTC 2014-01-27 17:38:14

21

S3PjSm6.png

BsO4IpQ.png

8azaxee.png

eYDQWMV.png

Y5Jafkj.png

z2Xkuxg.png

vFaS8F1.png

DOWNLOAD LINK 1

Download button 2

DOWNLOAD LINK 2

Download button 2

DOWNLOAD LINK 3

Download button 2

DOWNLOAD LINK 4

Download button 2

DOWNLOAD LINK 5

Download button 2

DOWNLOAD LINK 6

Download button 2

DOWNLOAD LINK 7

Download button 2

DOWNLOAD LINK 8

Download button 2