Prem Ratan Dhan Payo (2015) Desi Scr Rip – XviD – [1CD] – Eng Subs

1

Movie Info
Banner : Rajshri
Year : 2015
Cast : Salman Khan, Sonam Kapoor, Neil Nitin Mukesh,
Video: XviD
Audio : MP 3
Language : Hindi
Genre : Action, Comedy, Drama
Subtitles : ENGLISH
Resolution : 640 x 272
Runtime : 2hr 47min
Source : Team IcTv

21

Click Image To View Full Size

L]

DOWNLOAD LINK 1

Download button 2

DOWNLOAD LINK 2

Download button 2

DOWNLOAD LINK 3

Download button 2

DOWNLOAD LINK 4

Download button 2

DOWNLOAD LINK 5

Download button 2

DOWNLOAD LINK 6

Download button 2

DOWNLOAD LINK 7

Download button 2

DOWNLOAD LINK 8

Download button 2

Hitman Agent 47 2015 HDRip XViD

Hitman Agent 47 2015 HDRip XViD

image

 

1
image

21
image image image image image image image image

 

 

DOWNLOAD LINK 1

Download button 2

DOWNLOAD LINK 2

Download button 2

DOWNLOAD LINK 3

Download button 2

DOWNLOAD LINK 4

Download button 2

DOWNLOAD LINK 5

Download button 2

DOWNLOAD LINK 6

Download button 2

DOWNLOAD LINK 7

Download button 2

DOWNLOAD LINK 8

Download button 2

Download Pk (2014) 720p BluRay X265 – (rajbain.in) – 541MB

Download Pk (2014) 720p BluRay X265 – (rajbain.in) – 541MB

 

image

General
Complete name : Pk (2014) 720p BluRay X265 – (Movieteam2000) – 541MB.mp4
Format : MPEG-4
File size : 542 MiB
Duration : 2h 32mn 18s 600ms
Overall BitRate : 497 Kbps
Encoded date : UTC 2015-01-02 00:11:23

Video

ID : 1
Format : HEVC
Format/Info : High Efficiency Video Coding
Format profile : Main@L3.1
Duration : 2h 32mn
Codec ID : hvc1
Bit rate : 423 Kbps
Width : 1 288 pixels
Height : 544 pixels
Display aspect ratio : 2.35:1
Frame rate : 24.000 fps
Frame rate mode : Constant
Stream size : 461 MiB (85%)

Audio

ID : 2
Format : MPEG Audio
Format profile : Layer 3
Codec ID : 6B
Duration : 2h 32mn 18s 600ms
Bit rate mode : Variable
Bit rate : 70.0 Kbps
Channel(s) : 2 channels
Sampling rate : 48.0 KHz
Compression mode : Lossy
Stream size : 76.3 MiB (14%)

image
image
image
image
image

DOWNLOAD LINK 1

Download button 2

DOWNLOAD LINK 2

Download button 2

DOWNLOAD LINK 3

Download button 2

DOWNLOAD LINK 4

Download button 2

DOWNLOAD LINK 5

Download button 2

DOWNLOAD LINK 6

Download button 2

DOWNLOAD LINK 7

Download button 2

DOWNLOAD LINK 8

Download button 2

Download Dracula Untold 2014 HDRip XViD-juggs[ETRG]

Download Dracula Untold 2014 HDRip XViD-juggs[ETRG]

 

1



VIDEO: 720p HDRiP

AUDIO: MD iTA – EnG AAC

IMDB Rating: 6,2 (GOOD!)




TITOLO: DRACULA UNTOLD

DATA USCITA: 30 ottobre 2014

GENERE: Azione, Drammatico, Horror, Fantasy

ANNO: 2014

REGIA: Gary Shore

ATTORI: Luke Evans, Sarah Gadon, Dominic Cooper, Samantha Barks, Charlie Cox, Zach McGowan, William Houston, Noah Huntley, Ronan Vibert, Diarmaid Murtagh, Joseph Long

PAESE: USA

DURATA: 92 Min

image

Il giovane principe Vlad guida la carica per respingere i tentativi dell’impero Ottomano di utilizzare la Romania come un punto d’appoggio per conquistare il resto d’Europa. In un momento di disperazione, Vlad sale su una montagna dove risiede un oscuro potere magico con la speranza di trovare qualcosa che tenga a bada le orde turche. Quel potere lo aiuta a sconfiggere i turchi, ma questo avviene pagando il prezzo della sua trasformazione in una creatura della notte.
image
image


REPORT

Nome versione: TrTd
Fonte video: 720p HDRiP
Fonte audio: MD
Tracce Audio: iTA MP3 – EnG AAC

21

 

DOWNLOAD LINK 1

Download button 2

DOWNLOAD LINK 2

Download button 2

DOWNLOAD LINK 3

Download button 2

DOWNLOAD LINK 4

Download button 2

DOWNLOAD LINK 5

Download button 2

DOWNLOAD LINK 6

Download button 2

DOWNLOAD LINK 7

Download button 2

 

image

Download Happy Ending (2014) DVDSCR Rip Xvid AC3

Download Happy Ending (2014) DVDSCR Rip Xvid AC3

image

Happy Ending
(2014)
DVDSCR Rip Xvid AC3
Team TellyTNT Exclusive

image

~~~~MOVIE INFO~~~~

[color="Red"]
Movie:............Happy Ending
Source: ..........DVDSCR @ Team TellyTNT
Year:.............2014[/color]
General
Complete name : D:\Happy Ending.avi
Format : AVI
Format/Info : Audio Video Interleave
File size : 799 MiB
Duration : 2h 9mn
Overall bit rate : 863 KbpsVideo
ID : 0
Format : MPEG-4 Visual
Format profile : Advanced Simple@L5
Format settings, BVOP : 2
Format settings, QPel : No
Format settings, GMC : No warppoints
Format settings, Matrix : Default (H.263)
Codec ID : XVID
Codec ID/Hint : XviD
Duration : 2h 9mn
Bit rate : 663 Kbps
Width : 640 pixels
Height : 272 pixels
Display aspect ratio : 2.35:1
Frame rate : 23.976 fps
Color space : YUV
Chroma subsampling : 4:2:0
Bit depth : 8 bits
Scan type : Progressive
Compression mode : Lossy
Bits/(Pixel*Frame) : 0.159
Stream size : 615 MiB (77%)
Writing library : XviD 1.2.1 (UTC 2008-12-04)Audio
ID : 1
Format : AC-3
Format/Info : Audio Coding 3
Mode extension : CM (complete main)
Format settings, Endianness : Big
Codec ID : 2000
Duration : 2h 9mn
Bit rate mode : Constant
Bit rate : 192 Kbps
Channel(s) : 2 channels
Channel positions : Front: L R
Sampling rate : 48.0 KHz
Bit depth : 16 bits
Compression mode : Lossy
Stream size : 178 MiB (22%)
Alignment : Aligned on interleaves
Interleave, duration : 64 ms (1.53 video frames)
Interleave, preload duration : 192 ms
Title : VTS_01_1 T01 2_0ch 192Kbps DELAY 0ms

image
image
image
image
image
image
image
image
image
image
image
image
image
image

image
image
image

DOWNLOAD LINK 1

Download button 2

DOWNLOAD LINK 2

Download button 2

DOWNLOAD LINK 3

Download button 2

DOWNLOAD LINK 4

Download button 2

DOWNLOAD LINK 5

Download button 2

DOWNLOAD LINK 6

Download button 2

DOWNLOAD LINK 7

Download button 2

DOWNLOAD LINK 8

Download button 2

Daawat-e-Ishq (2014) DVDRip – XviD – 1CDRip

Daawat-e-Ishq (2014) DVDRip – XviD – 1CDRip

ilzUa9q.jpg

 

ucMInZe.gif

 

 

SCREENSHOTS

YPoeG3X.png

QtsCTqd.png

5b6UBMW.png

ZeccEzT.png

gQxvoBI.png

wEM0Fof.png

TToSxvr.png

1hQ0CcV.png

n1reL2A.png

QEQyE0i.png

8M5kMeW.png

MqON4oE.png

 

DOWNLOAD LINK 1

Download button 2

DOWNLOAD LINK 2

Download button 2

DOWNLOAD LINK 3

Download button 2

DOWNLOAD LINK 4

Download button 2

DOWNLOAD LINK 5

Download button 2

DOWNLOAD LINK 6

Download button 2

DOWNLOAD LINK 7

Download button 2

Roar – Tigers of Sunderbans 2014 [1CD] DVDSCR Rip

Roar – Tigers of Sunderbans 2014 [1CD] DVDSCR Rip

iU4OXtN.png

1

General
Complete name : D:\Roar – Tigers of Sunderbans.avi
Format : AVI
Format/Info : Audio Video Interleave
File size : 697 MiB
Duration : 1h 58mn
Overall bit rate : 820 Kbps

Video
ID : 0
Format : MPEG-4 Visual
Format profile : Advanced Simple@L5
Format settings, BVOP : 2
Format settings, QPel : No
Format settings, GMC : No warppoints
Format settings, Matrix : Default (H.263)
Codec ID : XVID
Codec ID/Hint : XviD
Duration : 1h 58mn
Bit rate : 714 Kbps
Width : 640 pixels
Height : 272 pixels
Display aspect ratio : 2.35:1
Frame rate : 23.976 fps
Color space : YUV
Chroma subsampling : 4:2:0
Bit depth : 8 bits
Scan type : Progressive
Compression mode : Lossy
Bits/(Pixel*Frame) : 0.171
Stream size : 608 MiB (87%)
Writing library : XviD 1.2.1 (UTC 2008-12-04)

Audio
ID : 1
Format : MPEG Audio
Format version : Version 1
Format profile : Layer 3
Mode : Joint stereo
Mode extension : MS Stereo
Codec ID : 55
Codec ID/Hint : MP3
Duration : 1h 58mn
Source duration : 1h 58mn
Bit rate mode : Constant
Bit rate : 96.0 Kbps
Channel(s) : 2 channels
Sampling rate : 32.0 KHz
Compression mode : Lossy
Stream size : 81.6 MiB (12%)
Alignment : Aligned on interleaves
Interleave, duration : 42 ms (1.00 video frame)
Writing library : LAME3.99r
Encoding settings : -m j -V 4 -q 2 -lowpass 15.1 -b 96

 

~~~~Screent Shots~~~~

TaLQ5Zc.jpg
fKM0Wel.jpg
euNa0Yd.jpg
5AFgu9k.jpg
ny8dCXM.jpg
xL83W1l.jpg
7SOopSY.jpg
XBF0GdL.jpg
NyPgkxr.jpg
fLXQ9QA.jpg
jMErO6L.jpg
kS7DdBP.jpg
AH9VJ5f.jpg
oyhQlOM.jpg
VZydQra.jpg
ltb48o2.jpg
Y4Q4jee.jpg

 

DOWNLOAD LINK 1

Download button 2

DOWNLOAD LINK 2

Download button 2

DOWNLOAD LINK 3

Download button 2

DOWNLOAD LINK 4

Download button 2

DOWNLOAD LINK 5

Download button 2

DOWNLOAD LINK 6

Download button 2

DOWNLOAD LINK 7

Download button 2

DOWNLOAD LINK 8

Download button 2

DOWNLOAD Automata.2014.HDRip.XViD.AC3

DOWNLOAD Automata.2014.HDRip.XViD.AC3

imdbqh.png

pve3.png

etrginfofinal.jpg

aut_mata_etrg.gif

etrgscreenshotsfinal.jpg
lIOifJw.png
GNbJL9w.png
ibEUz5H.png
5PhJTXb.png

 

 

DOWNLOAD LINK 1

Download button 2

DOWNLOAD LINK 2

Download button 2

DOWNLOAD LINK 3

Download button 2

DOWNLOAD LINK 4

Download button 2

DOWNLOAD LINK 5

Download button 2

DOWNLOAD LINK 6

Download button 2

DOWNLOAD LINK 7

Download button 2

 

Download Edge of Tomorrow (2014)

Download Edge of Tomorrow (2014) Dual Audioimage

1
Rating: 8.2/10
Director: Doug Liman
Genre: Action | Sci-Fi
Release Date: 6 June 2014
Stars: Tom Cruise, Emily Blunt, Bill Paxton

Click Here To Get Information About Movie Edge of Tomorrow (2014) Click Here To Watch Trailer Of Movie Edge of Tomorrow (2014)

Storyline: An alien race has hit the Earth in an unrelenting assault, unbeatable by any military unit in the world. Major William Cage (Cruise) is an officer who has never seen a day of combat when he is unceremoniously dropped into what amounts to a suicide mission. Killed within minutes, Cage now finds himself inexplicably thrown into a time loop-forcing him to live out the same brutal combat over and over, fighting and dying again…and again. But with each battle, Cage becomes able to engage the adversaries with increasing skill, alongside Special Forces warrior Rita Vrataski (Blunt). And, as Cage and Vrataski take the fight to the aliens, each repeated encounter gets them one step closer to defeating the enemy.

 21

Screen Shot Of Edge of Tomorrow (2014) Dual Audio Movie 300MB small Size PC Movie
Edge of Tomorrow (2014) Full Hindi Dubbed Movie 300MB Compressed PC Movie Free Download
Free Download Edge of Tomorrow Hollywood Movie 300MB Compressed For PC
Download Edge of Tomorrow Hindi And English Movie small Size Compressed Movie For PC Single Resumable Links

DOWNLOAD LINK 1

Download button 2

DOWNLOAD LINK 2

Download button 2

DOWNLOAD LINK 3

Download button 2

DOWNLOAD LINK 4

Download button 2

DOWNLOAD LINK 5

Download button 2

DOWNLOAD LINK 6

Download button 2

DOWNLOAD LINK 7

Download button 2

DOWNLOAD LINK 8

Download button 2

http://www.rajbain.in/2014/10/download-edge-tomorrow-2014-dual-audio/

Download The Expendables 3 – (2014) – 720p – HDRip – x264 – AAC – ESubs

Download The Expendables 3 – (2014) – 720p – HDRip – x264 – AAC – ESubs

image

1

Encoded By KhaTTaK

General

Format : Matroska
File size : 927 MiB
Duration : 1h 57mn
Overall bit rate : 1 099 Kbps
Movie name : The Expendables 3 – (2014) – 720p – HDRip – x264 – AAC – KhaTTaK

Video

ID : 1
Format : AVC
Format/Info : Advanced Video Codec
Format profile : High@L4.0
Format settings, ReFrames : 5 frames
Codec ID : V_MPEG4/ISO/AVC
Duration : 1h 57mn
Nominal bit rate : 1 041 Kbps
Width : 1 280 pixels
Height : 536 pixels
Display aspect ratio : 2.40:1
Frame rate mode : Constant
Frame rate : 23.976 fps
Writing library : x264

Audio

ID : 2
Format : AAC
Format/Info : Advanced Audio Codec
Codec ID : A_AAC
Duration : 1h 57mn
Channel(s) : 2 channels
Channel positions : Front: L R
Sampling rate : 44.1 KHz / 22.05 KHz

Subtitles

21


image
image
image
image
image

 

 

DOWNLOAD LINK 1

Download button 2

DOWNLOAD LINK 2

Download button 2

DOWNLOAD LINK 3

Download button 2

DOWNLOAD LINK 4

Download button 2

DOWNLOAD LINK 5

Download button 2

DOWNLOAD LINK 6

Download button 2

DOWNLOAD LINK 7

Download button 2

DOWNLOAD LINK 8

Download button 2